<?xml version="1.0" standalone="no"?>
<!DOCTYPE svg PUBLIC "-//W3C//DTD SVG 1.1//EN" "http://www.w3.org/Graphics/SVG/1.1/DTD/svg11.dtd" >
<svg xmlns="http://www.w3.org/2000/svg">
<metadata>
This is a custom SVG webfont generated by Font Squirrel.
Copyright   :  2008 Bernd Montag  feel free to distribute  feel free to use personal and commercial  read attached textfile for restrictions
</metadata>
<defs>
<font id="webfontatyWcKTw" horiz-adv-x="1234" >
<font-face units-per-em="2048" ascent="1638" descent="-410" />
<missing-glyph horiz-adv-x="348" />
<glyph unicode=" "  horiz-adv-x="348" />
<glyph unicode="&#x09;" horiz-adv-x="348" />
<glyph unicode="&#xa0;" horiz-adv-x="348" />
<glyph unicode="!" horiz-adv-x="563" d="M150 0v246h266v-246h-266zM150 371v1059h266v-1059h-266z" />
<glyph unicode="&#x22;" horiz-adv-x="813" d="M100 1430h244l-29 -435h-186zM469 1430h246l-31 -435h-184z" />
<glyph unicode="#" horiz-adv-x="1892" d="M100 344l29 154h403l89 379h-402l31 153h412l100 395h180l-100 -395h379l102 400h178l-100 -400h391l-29 -153h-401l-90 -379h401l-31 -154h-411l-90 -348h-180l90 348h-377l-90 -348h-181l89 348h-392zM713 498h377l90 379h-377z" />
<glyph unicode="$" horiz-adv-x="1048" d="M100 940q0 250 320 299v191h235v-191q117 -8 244 -49v-219q-170 59 -342 59q-203 0 -203 -110q0 -90 115 -91h111q371 0 370 -319q0 -270 -295 -320v-190h-235v190q-144 9 -270 50v221q174 -61 364 -62q170 0 170 111q0 90 -125 90h-108q-351 0 -351 340z" />
<glyph unicode="%" horiz-adv-x="1501" d="M100 0l1016 1430h266l-1017 -1430h-265zM100 1141q0 299 328 299q324 0 324 -299q0 -319 -324 -320q-328 1 -328 320zM291 1143q0 -147 137 -148q133 0 133 148q0 123 -133 123q-137 0 -137 -123zM750 299q0 309 327 309q326 0 326 -309t-326 -309q-327 0 -327 309z M940 301q0 -137 137 -137q135 0 135 137q0 133 -135 133q-137 0 -137 -133z" />
<glyph unicode="&#x26;" horiz-adv-x="1333" d="M100 414q0 227 183 313q-182 86 -183 307q0 395 510 396q184 0 361 -50v-211q-182 51 -348 52q-258 0 -258 -181q0 -211 204 -211h338v144h144l102 -144h182v-208h-161v-132q0 -492 -549 -491q-525 0 -525 416zM365 420q0 -209 262 -209q281 0 280 281v129h-336 q-206 0 -206 -201z" />
<glyph unicode="'" horiz-adv-x="444" d="M100 1430h244l-29 -435h-186z" />
<glyph unicode="(" horiz-adv-x="638" d="M100 524q0 457 199 906h266q-201 -455 -200.5 -905.5t200.5 -905.5h-266q-199 448 -199 905z" />
<glyph unicode=")" horiz-adv-x="638" d="M76 -381q199 449 198.5 905.5t-198.5 905.5h264q201 -455 201 -905.5t-201 -905.5h-264z" />
<glyph unicode="*" horiz-adv-x="808" d="M98 1151l49 149l211 -104l-30 234h155l-30 -232l209 100l49 -147l-230 -41l160 -172l-123 -90l-112 205l-113 -205l-125 90l162 170z" />
<glyph unicode="+" horiz-adv-x="948" d="M100 420v211h271v268h209v-268h270v-211h-270v-270h-209v270h-271z" />
<glyph unicode="," horiz-adv-x="614" d="M100 -250l150 434h264l-149 -434h-265z" />
<glyph unicode="-" horiz-adv-x="698" d="M100 420v211h500v-211h-500z" />
<glyph unicode="." horiz-adv-x="464" d="M100 0v246h265v-246h-265z" />
<glyph unicode="/" horiz-adv-x="1058" d="M25 0l725 1430h284l-725 -1430h-284z" />
<glyph unicode="0" horiz-adv-x="1374" d="M76 713q0 727 637 727q627 0 626 -727q0 -723 -626 -723q-637 0 -637 723zM350 719q0 -500 363 -500q352 0 352 500q0 492 -352 491q-363 1 -363 -491z" />
<glyph unicode="1" horiz-adv-x="583" d="M100 1182v108l414 140v-1430h-264v1182h-150z" />
<glyph unicode="2" horiz-adv-x="1179" d="M100 0v201q715 498 715 819q0 190 -260 190q-223 0 -416 -110v239q193 100 416 101q524 0 524 -420q0 -373 -571 -791h571v-229h-979z" />
<glyph unicode="3" horiz-adv-x="1114" d="M100 49v242q203 -72 420 -72q270 0 271 180q0 211 -193 211h-348v230h346q195 0 195 211q0 160 -271 159q-223 0 -420 -69v239q193 59 420 60q535 0 535 -389q0 -236 -189 -326q188 -86 189 -326q0 -410 -535 -409q-227 0 -420 59z" />
<glyph unicode="4" horiz-adv-x="1124" d="M76 340v229l393 861h264l-385 -861h330v529h264v-529l148 -75v-154h-148v-340h-264v340h-602z" />
<glyph unicode="5" horiz-adv-x="1173" d="M100 659l50 771h894v-230h-657l-22 -272q106 12 204 12q571 0 572 -479q0 -471 -551 -471q-276 0 -469 59v242q203 -72 469 -72q285 0 284 242q0 250 -305 250q-268 -1 -469 -52z" />
<glyph unicode="6" horiz-adv-x="1239" d="M100 530q0 465 508 943l201 -156q-258 -197 -369 -420q98 33 195 33q506 0 506 -461q0 -479 -514 -479q-527 -1 -527 540zM354 547q0 -328 283 -328q242 0 242 250q0 231 -250 231q-129 0 -256 -38q-19 -49 -19 -115z" />
<glyph unicode="7" horiz-adv-x="1124" d="M100 1200v230h951v-209l-574 -1221h-291l582 1200h-668z" />
<glyph unicode="8" horiz-adv-x="1239" d="M100 424q0 225 211 332q-172 96 -172 321q0 367 520.5 367t520.5 -367q0 -227 -176 -321q217 -106 217 -332q0 -434 -551 -434q-570 0 -570 434zM365 418q0 -199 311 -199q279 0 278 199q0 213 -292 213q-297 0 -297 -213zM406 1049q0 -188 260 -189q250 0 249 189 q0 162 -253 161q-256 1 -256 -161z" />
<glyph unicode="9" horiz-adv-x="1189" d="M100 965q0 479 533 479q508 0 508 -541q0 -465 -508 -942l-215 166q274 190 383 410q-102 -63 -217 -64q-484 0 -484 492zM360 965q0 -250 234 -250q152 0 272 67q18 41 19 107q0 326 -260 325q-265 1 -265 -249z" />
<glyph unicode=":" horiz-adv-x="464" d="M100 0v246h265v-246h-265zM100 805v246h265v-246h-265z" />
<glyph unicode=";" horiz-adv-x="614" d="M100 -250l150 434h264l-149 -434h-265zM250 805v246h264v-246h-264z" />
<glyph unicode="&#x3c;" horiz-adv-x="1099" d="M100 430v191l899 378v-249l-573 -230l573 -221v-250z" />
<glyph unicode="=" horiz-adv-x="948" d="M100 260v209h750v-209h-750zM100 580v211h750v-211h-750z" />
<glyph unicode="&#x3e;" horiz-adv-x="1099" d="M100 49v250l574 221l-574 230v249l899 -378v-191z" />
<glyph unicode="?" horiz-adv-x="1114" d="M100 1169v211q209 49 400 50q516 0 516 -390q0 -440 -502 -440v-229h-264v440h264q256 0 256 229q0 180 -270 181q-183 -1 -400 -52zM250 0h264v246h-264v-246z" />
<glyph unicode="@" horiz-adv-x="2129" d="M100 541q0 899 965 899t965 -899q0 -690 -447 -691q-301 0 -301 224q-127 -74 -311 -74q-395 0 -396 328q0 322 426 321q174 0 275 -18v67q0 141 -285 142q-163 0 -332 -49v208q176 51 332 52q549 0 549 -336v-596q0 -59 80 -60q145 0 145 482q0 690 -686 690 q-715 0 -714 -690q0 -711 645 -711v-211q-910 0 -910 922zM836 330q0 -119 159 -119q162 0 275 82v137q-96 20 -244 21q-190 0 -190 -121z" />
<glyph unicode="A" horiz-adv-x="1560" d="M25 0l608 1430h285l618 -1430h-285l-180 389h-457l91 232h296l-233 536l-471 -1157h-272z" />
<glyph unicode="B" horiz-adv-x="1308" d="M150 0v1430h669q410 0 410 -332q0 -246 -266 -350q283 -51 282 -324q0 -424 -446 -424h-649zM416 229h372q176 0 177 181q0 223 -265 223h-79v172q330 55 329 274q0 121 -147 121h-387v-971z" />
<glyph unicode="C" horiz-adv-x="1388" d="M100 735q0 705 770 705q238 0 420 -70v-240q-184 80 -399 80q-516 0 -516 -475q0 -516 516 -516q215 0 399 80v-240q-182 -70 -420 -69q-770 0 -770 745z" />
<glyph unicode="D" horiz-adv-x="1538" d="M150 0v1430h620q670 0 670 -676q0 -754 -670 -754h-620zM416 229h313q446 0 447 525q0 446 -447 446h-313v-971z" />
<glyph unicode="E" horiz-adv-x="1236" d="M150 0v1430h940v-228h-676v-360h641v-238h-645v-375h694v-229h-954z" />
<glyph unicode="F" horiz-adv-x="1222" d="M150 0v1430h940v-228h-676v-360h641v-238h-645v-604h-260z" />
<glyph unicode="G" horiz-adv-x="1388" d="M100 735q0 705 770 705q238 0 420 -70v-240q-184 80 -399 80q-516 0 -516 -475q0 -516 485 -516q72 0 164 25v415h266v-593q-170 -76 -434 -76q-756 0 -756 745z" />
<glyph unicode="H" horiz-adv-x="1533" d="M150 0v1430h266v-590h704v590h264v-1430h-264v610h-704v-610h-266z" />
<glyph unicode="I" horiz-adv-x="563" d="M150 0v1430h266v-1430h-266z" />
<glyph unicode="J" horiz-adv-x="739" d="M25 0v229q301 0 301 183v1018h264v-1018q0 -412 -565 -412z" />
<glyph unicode="K" horiz-adv-x="1449" d="M150 0v1430h266v-1430h-266zM496 668v172l540 590h326l-631 -666l715 -764h-369z" />
<glyph unicode="L" horiz-adv-x="1181" d="M150 0v1430h266v-1201h667v-229h-933z" />
<glyph unicode="M" horiz-adv-x="1798" d="M150 0v1430h276l483 -1086l475 1086h267v-1430h-246v995l-387 -995h-227l-396 995v-995h-245z" />
<glyph unicode="N" horiz-adv-x="1613" d="M150 0v1430h266l794 -1022v1022h254v-1430h-264l-794 1044v-1044h-256z" />
<glyph unicode="O" horiz-adv-x="1624" d="M100 713q0 727 717 727q709 0 709 -727q0 -723 -709 -723q-686 0 -717 723zM375 719q0 -500 442 -500q432 0 432 500q0 492 -432 491q-442 1 -442 -491z" />
<glyph unicode="P" horiz-adv-x="1241" d="M150 0v1430h669q410 0 410 -363q0 -426 -590 -518l-39 235q350 63 350 275q0 137 -147 137h-387v-1196h-266z" />
<glyph unicode="Q" horiz-adv-x="1624" d="M100 713q0 727 717 727q709 0 709 -727q0 -598 -447 -707l234 -268l-209 -160l-326 412q-647 0 -678 723zM375 719q0 -500 442 -500q432 0 432 500q0 492 -432 491q-442 1 -442 -491z" />
<glyph unicode="R" horiz-adv-x="1374" d="M150 2v1428h651q436 0 436 -383q0 -260 -340 -429l453 -618h-344l-435 623v120q389 63 390 295q0 158 -179 158h-362v-1194h-270z" />
<glyph unicode="S" horiz-adv-x="1308" d="M100 999q0 440 625 441q244 0 455 -70v-240q-215 80 -455 80q-360 0 -360 -211q0 -160 174 -159h243q467 0 467 -400q0 -451 -594 -450q-274 0 -485 69v240q215 -80 485 -80q330 0 330 221q0 160 -203 160h-243q-439 0 -439 399z" />
<glyph unicode="T" horiz-adv-x="1083" d="M0 1200v230h1085v-230h-409v-1200h-266v1200h-410z" />
<glyph unicode="U" horiz-adv-x="1529" d="M150 561v869h266v-869q0 -342 350 -342q348 0 348 342v869h266v-869q0 -571 -614 -571q-616 0 -616 571z" />
<glyph unicode="V" horiz-adv-x="1511" d="M0 1430h315l443 -1094l442 1094h311l-626 -1430h-285z" />
<glyph unicode="W" horiz-adv-x="1818" d="M0 1430h258l184 -998l353 998h254l327 -957l193 957h252l-271 -1430h-252l-393 1122l-422 -1122h-247z" />
<glyph unicode="X" horiz-adv-x="1501" d="M25 0l1126 1430h334l-1125 -1430h-335zM25 1430h335l1125 -1430h-334z" />
<glyph unicode="Y" horiz-adv-x="1298" d="M25 1430h284l404 -689l377 689h276l-526 -930v-500h-267v500z" />
<glyph unicode="Z" horiz-adv-x="1249" d="M125 0v229l795 971h-775v230h1041v-230l-762 -971h762v-229h-1061z" />
<glyph unicode="[" horiz-adv-x="679" d="M100 -381v1811h531v-209h-266v-1391h266v-211h-531z" />
<glyph unicode="\" horiz-adv-x="1058" d="M25 1430h284l725 -1430h-284z" />
<glyph unicode="]" horiz-adv-x="679" d="M49 -170h266v1391h-266v209h531v-1811h-531v211z" />
<glyph unicode="^" horiz-adv-x="1048" d="M49 700l402 730h149l399 -730h-229l-250 474l-239 -474h-232z" />
<glyph unicode="_" horiz-adv-x="1048" d="M25 0h999v-211h-999v211z" />
<glyph unicode="`" horiz-adv-x="399" d="M0 1325v211l399 -152v-208z" />
<glyph unicode="a" horiz-adv-x="1163" d="M76 328q0 322 454 321q152 0 244 -18v67q0 141 -272 142q-174 0 -342 -49v208q176 51 342 52q539 0 538 -346v-705h-135l-112 74q-137 -74 -293 -74q-424 0 -424 328zM340 330q0 -119 160 -119q162 0 274 82v137q-96 20 -244 21q-190 0 -190 -121z" />
<glyph unicode="b" horiz-adv-x="1181" d="M125 43v1387h264v-431q125 51 246 52q487 0 487 -504q0 -547 -532 -547q-217 0 -465 43zM389 244q102 -31 211 -31q260 0 260 340q0 276 -225 276q-139 0 -246 -53v-532z" />
<glyph unicode="c" horiz-adv-x="978" d="M59 545q0 506 580 506q162 0 291 -31v-209q-121 29 -271 29q-334 0 -333 -295q0 -334 333 -334q150 0 271 29v-209q-129 -31 -291 -31q-580 0 -580 545z" />
<glyph unicode="d" horiz-adv-x="1218" d="M76 547q0 504 508 504q131 0 245 -52v431h267v-1367q-236 -63 -492 -63q-528 0 -528 547zM338 553q0 -330 246 -330q147 0 245 39v514q-98 53 -245 53q-246 0 -246 -276z" />
<glyph unicode="e" horiz-adv-x="1085" d="M59 537q0 514 525 514q442 0 442 -454q0 -81 -14 -175h-686q0 -211 346 -211q168 0 317 29v-209q-137 -31 -358 -31q-572 0 -572 537zM326 616h438q1 14 1 28q0 198 -212 198q-209 -1 -227 -226z" />
<glyph unicode="f" horiz-adv-x="739" d="M125 -4v1106q0 381 473 381q127 0 233 -41v-209q-96 39 -235 39q-207 0 -207 -221h316v-211h-316v-840z" />
<glyph unicode="g" horiz-adv-x="1216" d="M76 530q0 520 573 521q184 0 443 -43v-1008q0 -381 -564 -381q-186 0 -344 51v209q154 -49 346 -49q297 0 297 240q-117 -49 -254 -50q-497 0 -497 510zM338 532q0 -293 235 -292q147 0 254 55v516q-66 25 -204 25q-285 -1 -285 -304z" />
<glyph unicode="h" d="M125 0v1430h264v-494q164 115 359 115q362 0 362 -392v-659h-264v662q0 174 -174 174q-137 0 -283 -134v-702h-264z" />
<glyph unicode="i" horiz-adv-x="514" d="M125 0v1051h264v-1051h-264zM125 1221v209h264v-209h-264z" />
<glyph unicode="j" horiz-adv-x="514" d="M0 -293q125 133 125 373v971h264v-971q0 -319 -180 -518zM125 1221v209h264v-209h-264z" />
<glyph unicode="k" horiz-adv-x="1220" d="M125 0v1430h264v-461q162 82 365 82q381 0 381 -334q0 -188 -281 -303l317 -414h-315l-334 444v84q348 31 348 191q0 121 -170 121q-156 0 -311 -95v-745h-264z" />
<glyph unicode="l" horiz-adv-x="514" d="M125 0v1430h264v-1430h-264z" />
<glyph unicode="m" horiz-adv-x="1832" d="M125 0v1051h205l30 -133q182 133 361 133q197 0 280 -146q201 145 377 146q332 0 332 -400v-651h-264v662q0 174 -150 174q-117 0 -245 -136v-700h-267v657q0 178 -145 179q-127 0 -250 -136v-700h-264z" />
<glyph unicode="n" d="M125 0v1051h205l32 -136q190 135 386 136q362 0 362 -392v-659h-264v662q0 174 -174 174q-137 0 -283 -134v-702h-264z" />
<glyph unicode="o" horiz-adv-x="1179" d="M59 524q0 537 530.5 537t530.5 -537q0 -532 -530 -532q-529 0 -531 532zM326 528q0 -328 264 -327.5t264 327.5q0 322 -264 322t-264 -322z" />
<glyph unicode="p" horiz-adv-x="1200" d="M125 -381v1389q209 43 463 43q555 0 555 -500q0 -551 -508 -551q-129 0 -246 49v-430h-264zM389 274q106 -55 244 -55q248 0 248 334q0 283 -283 283q-139 0 -209 -15v-547z" />
<glyph unicode="q" horiz-adv-x="1216" d="M76 530q0 520 545 521q213 0 471 -43v-1389h-265v430q-117 -49 -254 -49q-497 0 -497 530zM338 532q0 -313 235 -313q147 0 254 55v537q-94 25 -225 25q-264 -1 -264 -304z" />
<glyph unicode="r" horiz-adv-x="679" d="M125 0v1051h205l32 -136q137 135 293 136v-215q-150 0 -266 -134v-702h-264z" />
<glyph unicode="s" horiz-adv-x="1024" d="M76 729q0 332 467 332q199 0 372 -62v-219q-172 70 -380 70q-215 0 -216 -111q0 -100 125 -100h170q350 0 351 -320q0 -330 -447 -329q-223 0 -393 59v221q172 -70 403 -69q172 0 172 108q0 100 -114 101h-191q-319 0 -319 319z" />
<glyph unicode="t" horiz-adv-x="679" d="M125 283v938h197l38 -170h244v-211h-215v-484q0 -145 127 -145h88v-211h-215q-264 0 -264 283z" />
<glyph unicode="u" d="M125 391v660h264v-664q0 -174 172 -174q139 0 285 133v705h264v-1051h-207l-33 133q-188 -133 -383 -133q-362 0 -362 391z" />
<glyph unicode="v" horiz-adv-x="1079" d="M0 1051h281l254 -736l266 736h278l-426 -1051h-252z" />
<glyph unicode="w" horiz-adv-x="1597" d="M25 1051h268l156 -711l233 711h225l252 -711l139 711h277l-285 -1051h-250l-245 725l-250 -725h-254z" />
<glyph unicode="x" horiz-adv-x="1079" d="M0 0l784 1051h295l-784 -1051h-295zM0 1051h295l784 -1051h-295z" />
<glyph unicode="y" horiz-adv-x="1079" d="M0 1051h281l266 -756l258 756h276l-436 -1082q-119 -289 -371 -407l-129 182q178 78 256 250z" />
<glyph unicode="z" horiz-adv-x="989" d="M100 0v201l545 639h-524v211h809v-211l-537 -639h516v-201h-809z" />
<glyph unicode="{" horiz-adv-x="753" d="M100 410v229q209 0 209 313q0 299 131 478h265q-129 -176 -130 -478q0 -354 -249 -428q250 -74 249 -426q0 -303 130 -479h-265q-131 178 -131 479q0 312 -209 312z" />
<glyph unicode="|" horiz-adv-x="563" d="M150 -381v1811h266v-1811h-266z" />
<glyph unicode="}" horiz-adv-x="753" d="M49 -381q131 178 131 479q0 352 170 426q-170 74 -170 428q0 299 -131 478h266q129 -176 129 -478q0 -313 211 -313v-229q-211 0 -211 -312q0 -303 -129 -479h-266z" />
<glyph unicode="~" horiz-adv-x="948" d="M100 399v211q104 109 365 21q262 -90 385 18v-209q-104 -109 -364.5 -20.5t-385.5 -20.5z" />
<glyph unicode="&#xa1;" horiz-adv-x="563" d="M150 -381v1061h266v-1061h-266zM150 805v246h266v-246h-266z" />
<glyph unicode="&#xa2;" horiz-adv-x="1048" d="M100 735q0 449 410 504v191h256v-191q82 0 184 -29v-211q-129 31 -260 31q-326 0 -325 -295q0 -336 325 -336q131 0 260 31v-211q-70 -23 -184 -29v-190h-256v190q-410 53 -410 545z" />
<glyph unicode="&#xa3;" horiz-adv-x="1216" d="M100 -31v213q186 74 187 232q0 113 -78 291t-78 321q0 414 559 414q270 0 426 -101v-239q-160 131 -434 131q-272 0 -272 -203q0 -141 34 -199h385v-208h-313q39 -102 39 -205q0 -139 -63 -178q94 18 260 -39q168 -57 364 82v-232q-184 -129 -485 -55q-298 73 -531 -25z " />
<glyph unicode="&#xa4;" horiz-adv-x="1138" d="M100 172l115 121q-55 98 -55 231q0 141 55 232l-115 121l109 110l125 -121q111 70 241 70q121 0 226 -70l129 121l108 -110l-116 -121q57 -82 57 -232q0 -139 -68 -231l127 -121l-108 -111l-129 123q-104 -59 -234 -59q-125 0 -241 59l-117 -123zM322 528 q0 -246 245 -245q244 0 244 245q0 244 -244 244q-245 0 -245 -244z" />
<glyph unicode="&#xa5;" horiz-adv-x="1249" d="M49 1430h277l290 -510l299 510h285l-414 -660h293v-211h-336v-110h336v-209h-336v-240h-264v240h-309v209h309v110h-309v211h266z" />
<glyph unicode="&#xa6;" horiz-adv-x="200" />
<glyph unicode="&#xa7;" horiz-adv-x="1089" d="M100 700q0 158 131 215q-131 61 -131 226q0 299 467 299q199 0 373 -49v-222q-174 61 -373 62q-223 0 -223 -90q0 -100 156 -101h69q420 0 420 -307q0 -151 -110 -221q111 -55 110 -221q0 -301 -475 -301q-182 0 -364 51v219q170 -59 364 -59q211 0 211 90q0 98 -156 98 h-69q-400 0 -400 311zM344 717q0 -119 156 -119h69q156 0 156 107q0 127 -156 126h-69q-156 1 -156 -114z" />
<glyph unicode="&#xa8;" horiz-adv-x="552" d="M0 1239v191h215v-191h-215zM340 1239v191h215v-191h-215z" />
<glyph unicode="&#xa9;" horiz-adv-x="1161" d="M150 1024q0 426 430 426q434 0 434 -426q0 -416 -434 -416q-418 0 -430 416zM223 1024q0 -360 357 -360q360 0 360 360q0 371 -360 371q-357 0 -357 -371zM322 1032q0 -287 288 -287q82 0 156 23v61q-68 -27 -148 -26q-225 0 -225 229q0 213 225 213q80 0 148 -26v61 q-74 23 -156 23q-288 -1 -288 -271z" />
<glyph unicode="&#xaa;" horiz-adv-x="575" />
<glyph unicode="&#xab;" horiz-adv-x="1077" d="M49 524l258 375h273l-258 -375l258 -374h-273zM500 524l258 375h270l-258 -375l258 -374h-270z" />
<glyph unicode="&#xac;" horiz-adv-x="1394" />
<glyph unicode="&#xad;" horiz-adv-x="634" />
<glyph unicode="&#x2212;" horiz-adv-x="634" />
<glyph unicode="&#xae;" horiz-adv-x="1161" d="M150 1024q0 426 430 426q434 0 434 -426q0 -416 -434 -416q-418 0 -430 416zM223 1024q0 -360 357 -360q360 0 360 360q0 371 -360 371q-357 0 -357 -371zM403 756v536h230q154 0 153 -129q0 -104 -149 -153l182 -254h-90l-172 241v45q156 25 156 119q0 74 -86 74h-154 v-479h-70z" />
<glyph unicode="&#xaf;" horiz-adv-x="358" />
<glyph unicode="&#x2c9;" horiz-adv-x="358" />
<glyph unicode="&#xb0;" horiz-adv-x="870" d="M100 1110.5q0 319.5 338 319.5q334 0 334 -319.5t-334 -319.5q-338 0 -338 319.5zM291 1112q0 -147 147 -147q143 0 144 147q0 143 -144 143q-147 0 -147 -143z" />
<glyph unicode="&#xb1;" horiz-adv-x="634" />
<glyph unicode="&#xb2;" horiz-adv-x="299" />
<glyph unicode="&#xb3;" horiz-adv-x="299" />
<glyph unicode="&#xb4;" horiz-adv-x="399" d="M0 1176v208l399 152v-211z" />
<glyph unicode="&#xb5;" d="M125 -381v1432h264v-553q0 -285 193 -285q160 0 264 133v705h264v-1051h-207l-33 133q-147 -133 -292 -133q-143 0 -189 59v-440h-264z" />
<glyph unicode="&#x3bc;" d="M125 -381v1432h264v-553q0 -285 193 -285q160 0 264 133v705h264v-1051h-207l-33 133q-147 -133 -292 -133q-143 0 -189 59v-440h-264z" />
<glyph unicode="&#xb6;" horiz-adv-x="952" d="M0 985q0 444 442 445h510v-91h-149v-1773h-101v1773h-159v-1773h-101v973q-442 0 -442 446z" />
<glyph unicode="&#xb7;" horiz-adv-x="448" d="M100 524q0 125 125 125t125 -125t-125 -125t-125 125z" />
<glyph unicode="&#x2219;" horiz-adv-x="448" d="M100 524q0 125 125 125t125 -125t-125 -125t-125 125z" />
<glyph unicode="&#xb8;" horiz-adv-x="485" d="M0 -244q113 -51 215 -51q109 0 109 55q0 45 -82 45h-185l131 271h166l-82 -154q215 0 215 -162q0 -182 -272 -182q-108 0 -215 49v129z" />
<glyph unicode="&#xb9;" horiz-adv-x="299" />
<glyph unicode="&#xba;" horiz-adv-x="450" d="M119 541q0 899 962 899q967 0 967 -899q0 -690 -446 -691q-301 0 -302 224q-125 -74 -313 -74q-393 0 -393 487q0 543 512 543q276 0 453 -139v-772q0 -59 79 -60q145 0 146 482q0 690 -686 690q-715 0 -715 -690q0 -711 645 -711v-211q-909 0 -909 922zM854 489 q0 -279 160 -278q162 0 274 82v467q-92 51 -223 51q-211 0 -211 -322z" />
<glyph unicode="&#xbb;" horiz-adv-x="1077" d="M49 150l258 374l-258 375h273l258 -375l-258 -374h-273zM500 150l258 374l-258 375h270l258 -375l-258 -374h-270z" />
<glyph unicode="&#xbc;" horiz-adv-x="784" />
<glyph unicode="&#xbd;" horiz-adv-x="784" />
<glyph unicode="&#xbe;" horiz-adv-x="784" />
<glyph unicode="&#xbf;" horiz-adv-x="1114" d="M100 -121q209 -49 400 -49q270 0 270 180q0 229 -256 230h-264v440h264v-229q502 0 502 -441q0 -391 -516 -391q-182 0 -400 51v209zM250 805v246h264v-246h-264z" />
<glyph unicode="&#xc0;" horiz-adv-x="1560" d="M25 0l608 1430h285l618 -1430h-285l-180 389h-457l91 232h296l-233 536l-471 -1157h-272zM571 1638v209l402 -149v-209z" />
<glyph unicode="&#xc1;" horiz-adv-x="1560" d="M25 0l608 1430h285l618 -1430h-285l-180 389h-457l91 232h296l-233 536l-471 -1157h-272zM571 1489v209l402 149v-209z" />
<glyph unicode="&#xc2;" horiz-adv-x="1560" d="M25 0l608 1430h285l618 -1430h-285l-180 389h-457l91 232h296l-233 536l-471 -1157h-272zM514 1575l176 260h150l176 -260h-180l-70 129l-72 -129h-180z" />
<glyph unicode="&#xc3;" horiz-adv-x="1560" d="M25 0l608 1430h285l618 -1430h-285l-180 389h-457l91 232h296l-233 536l-471 -1157h-272zM520 1589v209q106 82 240 21q133 -59 260 20v-211q-104 -80 -240 -18q-133 59 -260 -21z" />
<glyph unicode="&#xc4;" horiz-adv-x="1560" d="M25 0l608 1430h285l618 -1430h-285l-180 389h-457l91 232h296l-233 536l-471 -1157h-272zM494 1599v191h215v-191h-215zM834 1599v191h215v-191h-215z" />
<glyph unicode="&#xc5;" horiz-adv-x="1560" d="M25 0l608 1430h285l618 -1430h-285l-180 389h-457l91 232h296l-233 536l-471 -1157h-272zM475 1567q0 268 289 268q295 0 295 -268q0 -281 -295 -281q-289 0 -289 281zM645 1569q0 -127 119 -127q125 0 125 127q0 113 -125 112q-119 1 -119 -112z" />
<glyph unicode="&#xc6;" horiz-adv-x="1884" d="M25 0l608 1430h1098v-230h-740l160 -360h545v-230h-445l166 -381h332v-229h-526l-461 1145l-219 -545h250l67 -211h-399l-154 -389h-282z" />
<glyph unicode="&#xc7;" horiz-adv-x="1388" d="M100 735q0 705 770 705q238 0 420 -70v-240q-184 80 -399 80q-516 0 -516 -475q0 -516 516 -516q215 0 399 80v-240q-182 -70 -420 -69q-770 0 -770 745zM584 -244q113 -51 215 -51q109 0 108 55q0 45 -84 45h-182l131 271h166l-82 -154q213 0 213 -162q0 -182 -270 -182 q-108 0 -215 49v129z" />
<glyph unicode="&#xc8;" horiz-adv-x="1236" d="M150 0h954v229h-694v375h645v238h-641v360h676v228h-940v-1430zM422 1638v209l399 -149v-209z" />
<glyph unicode="&#xc9;" horiz-adv-x="1236" d="M150 0h954v229h-694v375h645v238h-641v360h676v228h-940v-1430zM422 1489v209l399 149v-209z" />
<glyph unicode="&#xca;" horiz-adv-x="1236" d="M150 0v1430h940v-228h-676v-360h641v-238h-645v-375h694v-229h-954zM377 1575l174 260h149l177 -260h-181l-69 129l-72 -129h-178z" />
<glyph unicode="&#xcb;" horiz-adv-x="1236" d="M150 0h954v229h-694v375h645v238h-641v360h676v228h-940v-1430zM332 1599v191h215v-191h-215zM672 1599v191h215v-191h-215z" />
<glyph unicode="&#xcc;" horiz-adv-x="563" d="M86 1638v209l399 -149v-209zM150 0v1430h266v-1430h-266z" />
<glyph unicode="&#xcd;" horiz-adv-x="563" d="M86 1489v209l399 149v-209zM150 0v1430h266v-1430h-266z" />
<glyph unicode="&#xce;" horiz-adv-x="563" d="M35 1575l176 260h149l175 -260h-181l-69 129l-70 -129h-180zM150 0v1430h266v-1430h-266z" />
<glyph unicode="&#xcf;" horiz-adv-x="514" d="M-20 1599v191h215v-191h-215zM125 0v1430h264v-1430h-264zM319 1599v191h216v-191h-216z" />
<glyph unicode="&#xd0;" horiz-adv-x="661" />
<glyph unicode="&#xd1;" horiz-adv-x="1613" d="M150 0v1430h266l794 -1022v1022h254v-1430h-264l-794 1044v-1044h-256zM563 1589v209q106 82 242 21q133 -59 260 20v-211q-104 -80 -242 -18q-133 59 -260 -21z" />
<glyph unicode="&#xd2;" horiz-adv-x="1624" d="M100 713q0 727 717 727q709 0 709 -727q0 -723 -709 -723q-686 0 -717 723zM375 719q0 -500 442 -500q432 0 432 500q0 492 -432 491q-442 1 -442 -491zM606 1638v209l400 -149v-209z" />
<glyph unicode="&#xd3;" horiz-adv-x="1624" d="M100 713q0 727 717 727q709 0 709 -727q0 -723 -709 -723q-686 0 -717 723zM375 719q0 -500 442 -500q432 0 432 500q0 492 -432 491q-442 1 -442 -491zM606 1489v209l400 149v-209z" />
<glyph unicode="&#xd4;" horiz-adv-x="1624" d="M100 713q0 727 717 727q709 0 709 -727q0 -723 -709 -723q-686 0 -717 723zM375 719q0 -500 442 -500q432 0 432 500q0 492 -432 491q-442 1 -442 -491zM575 1575l177 260h149l174 -260h-178l-72 129l-69 -129h-181z" />
<glyph unicode="&#xd5;" horiz-adv-x="1624" d="M100 713q0 727 717 727q709 0 709 -727q0 -723 -709 -723q-686 0 -717 723zM375 719q0 -500 442 -500q432 0 432 500q0 492 -432 491q-442 1 -442 -491zM559 1589v209q106 82 242 21q133 -59 260 20v-211q-104 -80 -242 -18q-133 59 -260 -21z" />
<glyph unicode="&#xd6;" horiz-adv-x="1624" d="M100 713q0 727 717 727q709 0 709 -727q0 -723 -709 -723q-686 0 -717 723zM375 719q0 -500 442 -500q432 0 432 500q0 492 -432 491q-442 1 -442 -491zM524 1599v191h215v-191h-215zM864 1599v191h215v-191h-215z" />
<glyph unicode="&#xd7;" horiz-adv-x="634" />
<glyph unicode="&#xd8;" horiz-adv-x="1624" d="M100 713q0 727 717 727q709 0 709 -727q0 -723 -709 -723q-686 0 -717 723zM137 0l1084 1430h258l-1084 -1430h-258zM375 719q0 -500 442 -500q432 0 432 500q0 492 -432 491q-442 1 -442 -491z" />
<glyph unicode="&#xd9;" horiz-adv-x="1529" d="M150 561v869h266v-869q0 -342 350 -342q348 0 348 342v869h266v-869q0 -571 -614 -571q-616 0 -616 571zM565 1638v209l402 -149v-209z" />
<glyph unicode="&#xda;" horiz-adv-x="1529" d="M150 561v869h266v-869q0 -342 350 -342q348 0 348 342v869h266v-869q0 -571 -614 -571q-616 0 -616 571zM565 1489v209l402 149v-209z" />
<glyph unicode="&#xdb;" horiz-adv-x="1529" d="M150 561v869h266v-869q0 -342 350 -342q348 0 348 342v869h266v-869q0 -571 -614 -571q-616 0 -616 571zM514 1575l176 260h150l176 -260h-180l-70 129l-72 -129h-180z" />
<glyph unicode="&#xdc;" horiz-adv-x="1529" d="M150 561v869h266v-869q0 -342 350 -342q348 0 348 342v869h266v-869q0 -571 -614 -571q-616 0 -616 571zM492 1599v191h215v-191h-215zM831 1599v191h216v-191h-216z" />
<glyph unicode="&#xdd;" horiz-adv-x="524" />
<glyph unicode="&#xde;" horiz-adv-x="575" />
<glyph unicode="&#xdf;" horiz-adv-x="1214" d="M125 0v958q0 469 504 469q471 0 471 -397v-135q-305 -53 -305 -199q0 -72 186 -127q184 -55 184 -247q0 -322 -424 -322h-211v211h213q147 0 148 90q0 84 -176 139q-174 55 -174 254q0 207 286 336q0 186 -204 187q-233 0 -234 -261v-956h-264z" />
<glyph unicode="&#xe0;" horiz-adv-x="1163" d="M76 328q0 322 454 321q152 0 244 -18v67q0 141 -272 142q-174 0 -342 -49v208q176 51 342 52q539 0 538 -346v-705h-135l-112 74q-137 -74 -293 -74q-424 0 -424 328zM340 330q0 -119 160 -119q162 0 274 82v137q-96 20 -244 21q-190 0 -190 -121zM369 1325v211l399 -152 v-208z" />
<glyph unicode="&#xe1;" horiz-adv-x="1163" d="M76 328q0 322 454 321q152 0 244 -18v67q0 141 -272 142q-174 0 -342 -49v208q176 51 342 52q539 0 538 -346v-705h-135l-112 74q-137 -74 -293 -74q-424 0 -424 328zM340 330q0 -119 160 -119q162 0 274 82v137q-96 20 -244 21q-190 0 -190 -121zM369 1176v208l399 152 v-211z" />
<glyph unicode="&#xe2;" horiz-adv-x="1163" d="M76 328q0 322 454 321q152 0 244 -18v67q0 141 -272 142q-174 0 -342 -49v208q176 51 342 52q539 0 538 -346v-705h-135l-112 74q-137 -74 -293 -74q-424 0 -424 328zM340 1278l174 260h150l176 -260h-181l-69 131l-72 -131h-178zM340 330q0 -119 160 -119q162 0 274 82 v137q-96 20 -244 21q-190 0 -190 -121z" />
<glyph unicode="&#xe3;" horiz-adv-x="1163" d="M76 328q0 322 454 321q152 0 244 -18v67q0 141 -272 142q-174 0 -342 -49v208q176 51 342 52q539 0 538 -346v-705h-135l-112 74q-137 -74 -293 -74q-424 0 -424 328zM319 1229v211q104 80 240 18q133 -59 260 21v-209q-106 -82 -239 -21q-134 60 -261 -20zM340 330 q0 -119 160 -119q162 0 274 82v137q-96 20 -244 21q-190 0 -190 -121z" />
<glyph unicode="&#xe4;" horiz-adv-x="1163" d="M76 328q0 322 454 321q152 0 244 -18v67q0 141 -272 142q-174 0 -342 -49v208q176 51 342 52q539 0 538 -346v-705h-135l-112 74q-137 -74 -293 -74q-424 0 -424 328zM313 1239v191h215v-191h-215zM340 330q0 -119 160 -119q162 0 274 82v137q-96 20 -244 21 q-190 0 -190 -121zM653 1239v191h215v-191h-215z" />
<glyph unicode="&#xe5;" horiz-adv-x="1163" d="M76 328q0 322 454 321q152 0 244 -18v67q0 141 -272 142q-174 0 -342 -49v208q176 51 342 52q539 0 538 -346v-705h-135l-112 74q-137 -74 -293 -74q-424 0 -424 328zM262 1530q0 268 289 268q293 0 293 -268q0 -281 -293 -281q-289 0 -289 281zM340 330q0 -119 160 -119 q162 0 274 82v137q-96 20 -244 21q-190 0 -190 -121zM432 1532q0 -127 119 -127q123 0 123 127q0 113 -123 113q-119 0 -119 -113z" />
<glyph unicode="&#xe6;" horiz-adv-x="1744" d="M76 329.5q0 329.5 436 329.5q109 0 225 -20q0 201 -241 201q-176 0 -332 -47v204q172 53 334 54q297 0 397 -138q127 137 381 138q488 0 393 -609h-665q0 -231 360 -231q141 0 285 29v-209q-147 -31 -342 -31q-270 0 -418 113q-197 -113 -397 -113q-416 0 -416 329.5z M340 330q0 -119 149 -119q156 0 246 82v137q-104 20 -223 21q-172 0 -172 -121zM1001 655h439q-6 184 -191 185q-230 -1 -248 -185z" />
<glyph unicode="&#xe7;" horiz-adv-x="978" d="M59 545q0 506 580 506q162 0 291 -31v-209q-121 29 -271 29q-334 0 -333 -295q0 -334 333 -334q150 0 271 29v-209q-129 -31 -291 -31q-580 0 -580 545zM358 -244q113 -51 215 -51q109 0 109 45q0 55 -84 55h-182l131 269h166l-82 -152q215 0 215 -172t-273 -172 q-108 0 -215 49v129z" />
<glyph unicode="&#xe8;" horiz-adv-x="1085" d="M59 537q0 514 525 514q520 0 428 -629h-686q0 -211 346 -211q168 0 317 29v-209q-137 -31 -358 -31q-572 0 -572 537zM326 616h438q14 225 -211 226q-209 -1 -227 -226zM330 1325v211l399 -152v-208z" />
<glyph unicode="&#xe9;" horiz-adv-x="1085" d="M59 537q0 514 525 514q520 0 428 -629h-686q0 -211 346 -211q168 0 317 29v-209q-137 -31 -358 -31q-572 0 -572 537zM326 616h438q14 225 -211 226q-209 -1 -227 -226zM330 1176v208l399 152v-211z" />
<glyph unicode="&#xea;" horiz-adv-x="1085" d="M59 537q0 514 525 514q520 0 428 -629h-686q0 -211 346 -211q168 0 317 29v-209q-137 -31 -358 -31q-572 0 -572 537zM291 1278l176 260h149l175 -260h-181l-69 131l-70 -131h-180zM326 616h438q14 225 -211 226q-209 -1 -227 -226z" />
<glyph unicode="&#xeb;" horiz-adv-x="1085" d="M59 537q0 514 525 514q520 0 428 -629h-686q0 -211 346 -211q168 0 317 29v-209q-137 -31 -358 -31q-572 0 -572 537zM264 1239v191h215v-191h-215zM326 616h438q14 225 -211 226q-209 -1 -227 -226zM604 1239v191h215v-191h-215z" />
<glyph unicode="&#xec;" horiz-adv-x="514" d="M59 1325v211l402 -152v-208zM125 0v1051h264v-1051h-264z" />
<glyph unicode="&#xed;" horiz-adv-x="514" d="M59 1176v208l402 152v-211zM125 0v1051h264v-1051h-264z" />
<glyph unicode="&#xee;" horiz-adv-x="514" d="M10 1278l174 260h152l174 -260h-180l-70 131l-70 -131h-180zM125 0v1051h264v-1051h-264z" />
<glyph unicode="&#xef;" horiz-adv-x="514" d="M-20 1239v191h215v-191h-215zM125 0v1051h264v-1051h-264zM319 1239v191h216v-191h-216z" />
<glyph unicode="&#xf0;" horiz-adv-x="481" />
<glyph unicode="&#xf1;" d="M125 0v1051h205l32 -136q190 135 386 136q362 0 362 -392v-659h-264v662q0 174 -174 174q-137 0 -283 -134v-702h-264zM367 1229v211q104 80 239 18q133 -59 260 21v-209q-106 -82 -239 -21q-133 60 -260 -20z" />
<glyph unicode="&#xf2;" horiz-adv-x="1179" d="M59 524q0 537 530.5 537t530.5 -537q0 -532 -530 -532q-529 0 -531 532zM326 528q0 -328 264 -327.5t264 327.5q0 322 -264 322t-264 -322zM385 1325v211l399 -152v-208z" />
<glyph unicode="&#xf3;" horiz-adv-x="1179" d="M59 524q0 537 530.5 537t530.5 -537q0 -532 -530 -532q-529 0 -531 532zM326 528q0 -328 264 -327.5t264 327.5q0 322 -264 322t-264 -322zM385 1176v208l399 152v-211z" />
<glyph unicode="&#xf4;" horiz-adv-x="1179" d="M59 524q0 537 530.5 537t530.5 -537q0 -532 -530 -532q-529 0 -531 532zM326 528q0 -328 264 -327.5t264 327.5q0 322 -264 322t-264 -322zM338 1278l174 260h152l174 -260h-181l-69 131l-70 -131h-180z" />
<glyph unicode="&#xf5;" horiz-adv-x="1179" d="M59 524q0 537 530.5 537t530.5 -537q0 -532 -530 -532q-529 0 -531 532zM326 528q0 -328 264 -327.5t264 327.5q0 322 -264 322t-264 -322zM338 1229v211q104 80 240 18q133 -59 260 21v-209q-106 -82 -240 -21q-133 60 -260 -20z" />
<glyph unicode="&#xf6;" horiz-adv-x="1179" d="M59 524q0 537 530.5 537t530.5 -537q0 -532 -530 -532q-529 0 -531 532zM307 1239v191h215v-191h-215zM326 528q0 -328 264 -327.5t264 327.5q0 322 -264 322t-264 -322zM647 1239v191h215v-191h-215z" />
<glyph unicode="&#xf7;" horiz-adv-x="983" d="M100 420h785v211h-785v-211zM381 150v190h223v-190h-223zM381 711v188h223v-188h-223z" />
<glyph unicode="&#xf8;" horiz-adv-x="1179" d="M59 0l801 1051h258l-801 -1051h-258zM66 524q0 537 530 537q528 0 528 -537q0 -532 -528 -532t-530 532zM330 528q0 -328 266 -327q264 0 264 327q0 322 -264 322q-266 0 -266 -322z" />
<glyph unicode="&#xf9;" d="M125 391v660h264v-664q0 -174 172 -174q139 0 285 133v705h264v-1051h-207l-33 133q-188 -133 -383 -133q-362 0 -362 391zM420 1325v211l399 -152v-208z" />
<glyph unicode="&#xfa;" d="M125 391v660h264v-664q0 -174 172 -174q139 0 285 133v705h264v-1051h-207l-33 133q-188 -133 -383 -133q-362 0 -362 391zM420 1176v208l399 152v-211z" />
<glyph unicode="&#xfb;" d="M125 391v660h264v-664q0 -174 172 -174q139 0 285 133v705h264v-1051h-207l-33 133q-188 -133 -383 -133q-362 0 -362 391zM369 1278l176 260h149l174 -260h-180l-70 131l-69 -131h-180z" />
<glyph unicode="&#xfc;" d="M125 391v660h264v-664q0 -174 172 -174q139 0 285 133v705h264v-1051h-207l-33 133q-188 -133 -383 -133q-362 0 -362 391zM344 1239v191h215v-191h-215zM684 1239v191h215v-191h-215z" />
<glyph unicode="&#xfd;" horiz-adv-x="391" />
<glyph unicode="&#xfe;" horiz-adv-x="346" />
<glyph unicode="&#xff;" horiz-adv-x="391" />
<glyph unicode="&#x152;" horiz-adv-x="2213" d="M100 713q0 717 717 717h1258v-230h-701q111 -111 142 -360h524v-230h-524q-23 -244 -132 -381h707v-229h-1274q-686 0 -717 713zM375 719q0 -489 442 -490q422 0 422 490q0 481 -422 481q-442 0 -442 -481z" />
<glyph unicode="&#x153;" horiz-adv-x="1835" d="M59 522q0 528 510 529q264 0 385 -170q117 170 387 170q518 0 420 -629h-661q0 -211 360 -211q154 0 281 27v-205q-147 -33 -334 -33q-324 0 -451 145q-113 -145 -387 -145q-488 0 -510 522zM322 528q0 -317 253 -317q256 0 256 317q0 311 -256 312q-253 -1 -253 -312z M1106 616h407q14 225 -190 226q-199 -1 -217 -226z" />
<glyph unicode="&#x178;" horiz-adv-x="524" />
<glyph unicode="&#x2c6;" horiz-adv-x="548" d="M25 1278l176 260h149l174 -260h-180l-70 131l-69 -131h-180z" />
<glyph unicode="&#x2dc;" horiz-adv-x="698" d="M100 399v211q106 82 240 21q135 -61 260 18v-209q-106 -82 -240 -20q-133 59 -260 -21z" />
<glyph unicode="&#x2000;" horiz-adv-x="923" />
<glyph unicode="&#x2001;" horiz-adv-x="1847" />
<glyph unicode="&#x2002;" horiz-adv-x="923" />
<glyph unicode="&#x2003;" horiz-adv-x="1847" />
<glyph unicode="&#x2004;" horiz-adv-x="614" />
<glyph unicode="&#x2005;" horiz-adv-x="460" />
<glyph unicode="&#x2006;" horiz-adv-x="307" />
<glyph unicode="&#x2007;" horiz-adv-x="307" />
<glyph unicode="&#x2008;" horiz-adv-x="229" />
<glyph unicode="&#x2009;" horiz-adv-x="368" />
<glyph unicode="&#x200a;" horiz-adv-x="100" />
<glyph unicode="&#x2010;" horiz-adv-x="698" d="M100 420v211h500v-211h-500z" />
<glyph unicode="&#x2011;" horiz-adv-x="698" d="M100 420v211h500v-211h-500z" />
<glyph unicode="&#x2012;" horiz-adv-x="698" d="M100 420v211h500v-211h-500z" />
<glyph unicode="&#x2013;" horiz-adv-x="681" />
<glyph unicode="&#x2014;" horiz-adv-x="892" />
<glyph unicode="&#x2018;" horiz-adv-x="593" d="M100 1430h244l152 -435h-246z" />
<glyph unicode="&#x2019;" horiz-adv-x="593" d="M100 995l150 435h246l-152 -435h-244z" />
<glyph unicode="&#x201a;" horiz-adv-x="233" />
<glyph unicode="&#x201c;" horiz-adv-x="1024" d="M100 995l150 435h246l-152 -435h-244zM530 995l150 435h246l-152 -435h-244z" />
<glyph unicode="&#x201d;" horiz-adv-x="1024" d="M100 1430h244l152 -435h-246zM530 1430h244l152 -435h-246z" />
<glyph unicode="&#x201e;" horiz-adv-x="1024" d="M100 -250l150 434h246l-152 -434h-244zM530 -250l150 434h246l-152 -434h-244z" />
<glyph unicode="&#x2022;" horiz-adv-x="628" d="M100 725q0 215 215 215t215 -215t-215 -215t-215 215z" />
<glyph unicode="&#x2026;" horiz-adv-x="790" />
<glyph unicode="&#x202f;" horiz-adv-x="368" />
<glyph unicode="&#x2039;" horiz-adv-x="628" d="M49 524l258 375h273l-258 -375l258 -374h-273z" />
<glyph unicode="&#x203a;" horiz-adv-x="628" d="M49 150l258 374l-258 375h273l258 -375l-258 -374h-273z" />
<glyph unicode="&#x205f;" horiz-adv-x="460" />
<glyph unicode="&#x20ac;" horiz-adv-x="1384" d="M100 735q0 705 750 705q221 0 399 -60v-239q-182 70 -379 69q-418 0 -485 -229h674v-209h-694v-70h694v-210h-674q57 -272 485 -273q193 0 379 72v-242q-178 -59 -399 -59q-750 0 -750 745z" />
<glyph unicode="&#x2122;" horiz-adv-x="1605" d="M150 1360v70h512v-70h-213v-602h-87v602h-212zM750 758v672h110l248 -562l242 562h106v-672h-78v542l-239 -542h-70l-242 542v-542h-77z" />
<glyph unicode="&#xe000;" horiz-adv-x="1050" d="M0 1050h1050v-1050h-1050v1050z" />
<glyph unicode="&#xfb01;" horiz-adv-x="1255" d="M866 0v1051h264v-1051h-264zM866 1221v209h264v-209h-264zM125 -4v1106q0 381 473 381q127 0 233 -41v-209q-96 39 -235 39q-207 0 -207 -221h316v-211h-316v-840z" />
<glyph unicode="&#xfb02;" horiz-adv-x="1255" d="M866 0v1430h264v-1430h-264zM125 -4v1106q0 381 473 381q127 0 233 -41v-209q-96 39 -235 39q-207 0 -207 -221h316v-211h-316v-840z" />
<glyph unicode="&#xfb03;" horiz-adv-x="1996" d="M1608 0v1051h264v-1051h-264zM1608 1221v209h264v-209h-264zM866 -4v1106q0 381 473 381q127 0 233 -41v-209q-96 39 -235 39q-207 0 -207 -221h316v-211h-316v-840zM125 -4v1106q0 381 473 381q127 0 233 -41v-209q-96 39 -235 39q-207 0 -207 -221h316v-211h-316v-840z " />
<glyph unicode="&#xfb04;" horiz-adv-x="1996" d="M1608 0v1430h264v-1430h-264zM866 -4v1106q0 381 473 381q127 0 233 -41v-209q-96 39 -235 39q-207 0 -207 -221h316v-211h-316v-840zM125 -4v1106q0 381 473 381q127 0 233 -41v-209q-96 39 -235 39q-207 0 -207 -221h316v-211h-316v-840z" />
</font>
</defs>
</svg>
